Sympho Black / Dimmu Borgir - Eonian / 2018 / FLAC

Год: 2018
Жанр: Sympho Black
Страна: Норвегия
Продолжительность: 00:54:21
Наличие сканов: да + PDF Booklet

Источник записи: [TR24][OF]
Контейнер: FLAC (*.flac)
Тип рипа: tracks
Разрядность: 24bit / 48kHz
Количество каналов: 2.0
Формат: PCM

Треклист

1. The Unveiling (05:47)
2. Interdimensional Summit(04:39)
3. Ætheric (05:27)
4. Council Of Wolves And Snakes (05:20)
5. The Empyrean Phoenix (04:44)
6. Lightbringer (06:06)
7. I Am Sovereign (06:48)
8. Archaic Correspondence (04:55)
9. Alpha Aeon Omega (05:18)
10. Rite Of Passage (05:16)

DR

foobar2000 1.3.7 / Замер динамического диапазона (DR) 1.1.1
Дата отчёта:  2018-05-05 03:33:25

--------------------------------------------------------------------------------
Анализ:   Dimmu Borgir / Eonian
--------------------------------------------------------------------------------

DR         Пики         RMS           Продолжительность трека
--------------------------------------------------------------------------------
DR5       -0.70 дБ    -7.62 дБ      5:47 01-The Unveiling
DR6       -0.70 дБ    -7.55 дБ      4:39 02-Interdimensional Summit
DR6       -0.70 дБ    -8.32 дБ      5:27 03-Ætheric
DR6       -0.70 дБ    -8.83 дБ      5:20 04-Council Of Wolves And Snakes
DR5       -0.70 дБ    -7.53 дБ      4:44 05-The Empyrean Phoenix
DR5       -0.70 дБ    -7.79 дБ      6:06 06-Lightbringer
DR6       -0.70 дБ    -8.54 дБ      6:48 07-I Am Sovereign
DR7       -0.70 дБ    -9.17 дБ      4:55 08-Archaic Correspondence
DR6       -0.70 дБ    -8.00 дБ      5:18 09-Alpha Aeon Omega
DR6       -0.70 дБ    -9.82 дБ      5:16 10-Rite Of Passage
--------------------------------------------------------------------------------

Количество треков: 10
Реальные значения DR: DR6

Частота:   48000 Гц
Каналов:   2
Разрядность:   24
Битрейт:   1663 кбит/с
Кодек:   FLAC
================================================================================

MediaInfo

Общее
Полное имя : E:\Раздачи\Dimmu Borgir\Qobuz-Dimmu_Borgir-Eonian\Dimmu_Borgir-Eonian\08. Archaic Correspondence.flac
Формат : FLAC
Формат/Информация : Free Lossless Audio Codec
Размер файла : 64,3 Мбайт
Продолжительность : 4 м. 55 с.
Режим общего битрейта : Переменный
Общий поток : 1828 Кбит/сек
Альбом : Eonian
Альбом/Исполнитель : Dimmu Borgir
Часть : 1
Часть/Всего : 1
Трек : Archaic Correspondence
Трек/Положение : 8
Трек/Всего : 10
Исполнитель : Dimmu Borgir
Жанр : Sympho Black
Описание : Interprètes : Dimmu Borgir, MainArtist / Stian Thoresen, Composer, Lyricist / Tom Rune Andersen, Composer, Lyricist / Sven Atle Kopperud, Composer, Lyricist / Label : Nuclear Blast - Warner
Дата записи : 2018
Авторское право : 2018 Nuclear Blast
Обложка : Yes
Описание обложки : Eonian
Тип обложки : Cover (front)
MIME-тип обложки : image/jpeg
GROUPING : Metal

Аудио
Формат : FLAC
Формат/Информация : Free Lossless Audio Codec
Продолжительность : 4 м. 55 с.
Вид битрейта : Переменный
Битрейт : 1821 Кбит/сек
Каналы : 2 канала
Расположение каналов : Front: L R
Частота : 48,0 КГц
Битовая глубина : 24 бит
Размер потока : 64,0 Мбайт (100

Общее
Полное имя : E:\Раздачи\Dimmu Borgir\Qobuz-Dimmu_Borgir-Eonian\Dimmu_Borgir-Eonian\09. Alpha Aeon Omega.flac
Формат : FLAC
Формат/Информация : Free Lossless Audio Codec
Размер файла : 67,9 Мбайт
Продолжительность : 5 м. 18 с.
Режим общего битрейта : Переменный
Общий поток : 1792 Кбит/сек
Альбом : Eonian
Альбом/Исполнитель : Dimmu Borgir
Часть : 1
Часть/Всего : 1
Трек : Alpha Aeon Omega
Трек/Положение : 9
Трек/Всего : 10
Исполнитель : Dimmu Borgir
Жанр : Sympho Black
Описание : Interprètes : Dimmu Borgir, MainArtist / Stian Thoresen, Composer, Lyricist / Tom Rune Andersen, Composer, Lyricist / Sven Atle Kopperud, Composer, Lyricist / Label : Nuclear Blast - Warner
Дата записи : 2018
Авторское право : 2018 Nuclear Blast
Обложка : Yes
Описание обложки : Eonian
Тип обложки : Cover (front)
MIME-тип обложки : image/jpeg
GROUPING : Metal

Аудио
Формат : FLAC
Формат/Информация : Free Lossless Audio Codec
Продолжительность : 5 м. 18 с.
Вид битрейта : Переменный
Битрейт : 1785 Кбит/сек
Каналы : 2 канала
Расположение каналов : Front: L R
Частота : 48,0 КГц
Битовая глубина : 24 бит
Размер потока : 67,7 Мбайт (100

Общее
Полное имя : E:\Раздачи\Dimmu Borgir\Qobuz-Dimmu_Borgir-Eonian\Dimmu_Borgir-Eonian\10. Rite Of Passage.flac
Формат : FLAC
Формат/Информация : Free Lossless Audio Codec
Размер файла : 62,9 Мбайт
Продолжительность : 5 м. 16 с.
Режим общего битрейта : Переменный
Общий поток : 1670 Кбит/сек
Альбом : Eonian
Альбом/Исполнитель : Dimmu Borgir
Часть : 1
Часть/Всего : 1
Трек : Rite Of Passage
Трек/Положение : 10
Трек/Всего : 10
Исполнитель : Dimmu Borgir
Жанр : Sympho Black
Описание : Interprètes : Instrumental, Lyricist / Dimmu Borgir, MainArtist / Stian Thoresen, Composer / Tom Rune Andersen, Composer / Sven Atle Kopperud, Composer / Label : Nuclear Blast - Warner
Дата записи : 2018
Авторское право : 2018 Nuclear Blast
Обложка : Yes
Описание обложки : Eonian
Тип обложки : Cover (front)
MIME-тип обложки : image/jpeg
GROUPING : Metal

Аудио
Формат : FLAC
Формат/Информация : Free Lossless Audio Codec
Продолжительность : 5 м. 16 с.
Вид битрейта : Переменный
Битрейт : 1663 Кбит/сек
Каналы : 2 канала
Расположение каналов : Front: L R
Частота : 48,0 КГц
Битовая глубина : 24 бит
Размер потока : 62,6 Мбайт (100

Общее
Полное имя : E:\Раздачи\Dimmu Borgir\Qobuz-Dimmu_Borgir-Eonian\Dimmu_Borgir-Eonian\01. The Unveiling.flac
Формат : FLAC
Формат/Информация : Free Lossless Audio Codec
Размер файла : 76,4 Мбайт
Продолжительность : 5 м. 47 с.
Режим общего битрейта : Переменный
Общий поток : 1846 Кбит/сек
Альбом : Eonian
Альбом/Исполнитель : Dimmu Borgir
Часть : 1
Часть/Всего : 1
Трек : The Unveiling
Трек/Положение : 1
Трек/Всего : 10
Исполнитель : Dimmu Borgir
Жанр : Sympho Black
Описание : Interprètes : Dimmu Borgir, MainArtist / Stian Thoresen, Composer, Lyricist / Tom Rune Andersen, Composer, Lyricist / Sven Atle Kopperud, Composer, Lyricist / Label : Nuclear Blast - Warner
Дата записи : 2018
Авторское право : 2018 Nuclear Blast
Обложка : Yes
Описание обложки : Eonian
Тип обложки : Cover (front)
MIME-тип обложки : image/jpeg
GROUPING : Metal

Аудио
Формат : FLAC
Формат/Информация : Free Lossless Audio Codec
Продолжительность : 5 м. 47 с.
Вид битрейта : Переменный
Битрейт : 1840 Кбит/сек
Каналы : 2 канала
Расположение каналов : Front: L R
Частота : 48,0 КГц
Битовая глубина : 24 бит
Размер потока : 76,1 Мбайт (100

Общее
Полное имя : E:\Раздачи\Dimmu Borgir\Qobuz-Dimmu_Borgir-Eonian\Dimmu_Borgir-Eonian\02. Interdimensional Summit.flac
Формат : FLAC
Формат/Информация : Free Lossless Audio Codec
Размер файла : 62,1 Мбайт
Продолжительность : 4 м. 39 с.
Режим общего битрейта : Переменный
Общий поток : 1867 Кбит/сек
Альбом : Eonian
Альбом/Исполнитель : Dimmu Borgir
Часть : 1
Часть/Всего : 1
Трек : Interdimensional Summit
Трек/Положение : 2
Трек/Всего : 10
Исполнитель : Dimmu Borgir
Жанр : Sympho Black
Описание : Interprètes : Dimmu Borgir, MainArtist / Stian Thoresen, Composer, Lyricist / Tom Rune Andersen, Composer, Lyricist / Sven Atle Kopperud, Composer, Lyricist / Label : Nuclear Blast - Warner
Дата записи : 2018
Авторское право : 2018 Nuclear Blast
Обложка : Yes
Описание обложки : Eonian
Тип обложки : Cover (front)
MIME-тип обложки : image/jpeg
GROUPING : Metal

Аудио
Формат : FLAC
Формат/Информация : Free Lossless Audio Codec
Продолжительность : 4 м. 39 с.
Вид битрейта : Переменный
Битрейт : 1859 Кбит/сек
Каналы : 2 канала
Расположение каналов : Front: L R
Частота : 48,0 КГц
Битовая глубина : 24 бит
Размер потока : 61,9 Мбайт (100

Общее
Полное имя : E:\Раздачи\Dimmu Borgir\Qobuz-Dimmu_Borgir-Eonian\Dimmu_Borgir-Eonian\03. AEtheric.flac
Формат : FLAC
Формат/Информация : Free Lossless Audio Codec
Размер файла : 70,2 Мбайт
Продолжительность : 5 м. 27 с.
Режим общего битрейта : Переменный
Общий поток : 1800 Кбит/сек
Альбом : Eonian
Альбом/Исполнитель : Dimmu Borgir
Часть : 1
Часть/Всего : 1
Трек : Ætheric
Трек/Положение : 3
Трек/Всего : 10
Исполнитель : Dimmu Borgir
Жанр : Sympho Black
Описание : Interprètes : Dimmu Borgir, MainArtist / Stian Thoresen, Composer, Lyricist / Tom Rune Andersen, Composer, Lyricist / Sven Atle Kopperud, Composer, Lyricist / Label : Nuclear Blast - Warner
Дата записи : 2018
Авторское право : 2018 Nuclear Blast
Обложка : Yes
Описание обложки : Eonian
Тип обложки : Cover (front)
MIME-тип обложки : image/jpeg
GROUPING : Metal

Аудио
Формат : FLAC
Формат/Информация : Free Lossless Audio Codec
Продолжительность : 5 м. 27 с.
Вид битрейта : Переменный
Битрейт : 1793 Кбит/сек
Каналы : 2 канала
Расположение каналов : Front: L R
Частота : 48,0 КГц
Битовая глубина : 24 бит
Размер потока : 70,0 Мбайт (100

Общее
Полное имя : E:\Раздачи\Dimmu Borgir\Qobuz-Dimmu_Borgir-Eonian\Dimmu_Borgir-Eonian\04. Council Of Wolves And Snakes.flac
Формат : FLAC
Формат/Информация : Free Lossless Audio Codec
Размер файла : 67,8 Мбайт
Продолжительность : 5 м. 19 с.
Режим общего битрейта : Переменный
Общий поток : 1777 Кбит/сек
Альбом : Eonian
Альбом/Исполнитель : Dimmu Borgir
Часть : 1
Часть/Всего : 1
Трек : Council Of Wolves And Snakes
Трек/Положение : 4
Трек/Всего : 10
Исполнитель : Dimmu Borgir
Жанр : Sympho Black
Описание : Interprètes : Dimmu Borgir, MainArtist / Stian Thoresen, Composer, Lyricist / Tom Rune Andersen, Composer, Lyricist / Sven Atle Kopperud, Composer, Lyricist / Label : Nuclear Blast - Warner
Дата записи : 2018
Авторское право : 2018 Nuclear Blast
Обложка : Yes
Описание обложки : Eonian
Тип обложки : Cover (front)
MIME-тип обложки : image/jpeg
GROUPING : Metal

Аудио
Формат : FLAC
Формат/Информация : Free Lossless Audio Codec
Продолжительность : 5 м. 19 с.
Вид битрейта : Переменный
Битрейт : 1770 Кбит/сек
Каналы : 2 канала
Расположение каналов : Front: L R
Частота : 48,0 КГц
Битовая глубина : 24 бит
Размер потока : 67,5 Мбайт (100

Общее
Полное имя : E:\Раздачи\Dimmu Borgir\Qobuz-Dimmu_Borgir-Eonian\Dimmu_Borgir-Eonian\05. The Empyrean Phoenix.flac
Формат : FLAC
Формат/Информация : Free Lossless Audio Codec
Размер файла : 61,8 Мбайт
Продолжительность : 4 м. 44 с.
Режим общего битрейта : Переменный
Общий поток : 1825 Кбит/сек
Альбом : Eonian
Альбом/Исполнитель : Dimmu Borgir
Часть : 1
Часть/Всего : 1
Трек : The Empyrean Phoenix
Трек/Положение : 5
Трек/Всего : 10
Исполнитель : Dimmu Borgir
Жанр : Sympho Black
Описание : Interprètes : Dimmu Borgir, MainArtist / Stian Thoresen, Composer, Lyricist / Tom Rune Andersen, Composer, Lyricist / Sven Atle Kopperud, Composer, Lyricist / Label : Nuclear Blast - Warner
Дата записи : 2018
Авторское право : 2018 Nuclear Blast
Обложка : Yes
Описание обложки : Eonian
Тип обложки : Cover (front)
MIME-тип обложки : image/jpeg
GROUPING : Metal

Аудио
Формат : FLAC
Формат/Информация : Free Lossless Audio Codec
Продолжительность : 4 м. 44 с.
Вид битрейта : Переменный
Битрейт : 1817 Кбит/сек
Каналы : 2 канала
Расположение каналов : Front: L R
Частота : 48,0 КГц
Битовая глубина : 24 бит
Размер потока : 61,6 Мбайт (100

Общее
Полное имя : E:\Раздачи\Dimmu Borgir\Qobuz-Dimmu_Borgir-Eonian\Dimmu_Borgir-Eonian\06. Lightbringer.flac
Формат : FLAC
Формат/Информация : Free Lossless Audio Codec
Размер файла : 80,0 Мбайт
Продолжительность : 6 м. 6 с.
Режим общего битрейта : Переменный
Общий поток : 1834 Кбит/сек
Альбом : Eonian
Альбом/Исполнитель : Dimmu Borgir
Часть : 1
Часть/Всего : 1
Трек : Lightbringer
Трек/Положение : 6
Трек/Всего : 10
Исполнитель : Dimmu Borgir
Жанр : Sympho Black
Описание : Interprètes : Dimmu Borgir, MainArtist / Stian Thoresen, Composer, Lyricist / Tom Rune Andersen, Composer, Lyricist / Sven Atle Kopperud, Composer, Lyricist / Label : Nuclear Blast - Warner
Дата записи : 2018
Авторское право : 2018 Nuclear Blast
Обложка : Yes
Описание обложки : Eonian
Тип обложки : Cover (front)
MIME-тип обложки : image/jpeg
GROUPING : Metal

Аудио
Формат : FLAC
Формат/Информация : Free Lossless Audio Codec
Продолжительность : 6 м. 6 с.
Вид битрейта : Переменный
Битрейт : 1828 Кбит/сек
Каналы : 2 канала
Расположение каналов : Front: L R
Частота : 48,0 КГц
Битовая глубина : 24 бит
Размер потока : 79,8 Мбайт (100

Общее
Полное имя : E:\Раздачи\Dimmu Borgir\Qobuz-Dimmu_Borgir-Eonian\Dimmu_Borgir-Eonian\07. I Am Sovereign.flac
Формат : FLAC
Формат/Информация : Free Lossless Audio Codec
Размер файла : 87,9 Мбайт
Продолжительность : 6 м. 48 с.
Режим общего битрейта : Переменный
Общий поток : 1808 Кбит/сек
Альбом : Eonian
Альбом/Исполнитель : Dimmu Borgir
Часть : 1
Часть/Всего : 1
Трек : I Am Sovereign
Трек/Положение : 7
Трек/Всего : 10
Исполнитель : Dimmu Borgir
Жанр : Sympho Black
Описание : Interprètes : Dimmu Borgir, MainArtist / Stian Thoresen, Composer, Lyricist / Tom Rune Andersen, Composer, Lyricist / Sven Atle Kopperud, Composer, Lyricist / Label : Nuclear Blast - Warner
Дата записи : 2018
Авторское право : 2018 Nuclear Blast
Обложка : Yes
Описание обложки : Eonian
Тип обложки : Cover (front)
MIME-тип обложки : image/jpeg
GROUPING : Metal

Аудио
Формат : FLAC
Формат/Информация : Free Lossless Audio Codec
Продолжительность : 6 м. 48 с.
Вид битрейта : Переменный
Битрейт : 1802 Кбит/сек
Каналы : 2 канала
Расположение каналов : Front: L R
Частота : 48,0 КГц
Битовая глубина : 24 бит
Размер потока : 87,7 Мбайт (100



Информация

  Данные   Скриншоты   Раздающие   Скачавшие   Файлы
Раздал Просмотров Взят Скачан Забанен
raven_kg 4037 39 3 Да

Комментарии


Комментарии отсутствуют

Добавить комментарий

У Вас нет прав оставлять комментарии.